#TITLE:Agony is my Name;
#SUBTITLE:;
#ARTIST:Rhapsody;
#TITLETRANSLIT:;
#SUBTITLETRANSLIT:;
#ARTISTTRANSLIT:;
#CREDIT:;
#BANNER:Agony-ba.jpg;
#BACKGROUND:Agony-bg.jpg;
#LYRICSPATH:;
#CDTITLE:mus1cwhite.png;
#MUSIC:06 - Agony is my Name.mp3;
#OFFSET:0.040;
#SAMPLESTART:60.000;
#SAMPLELENGTH:30.000;
#SELECTABLE:YES;
#BPMS:0.000=184.996;
#STOPS:;
#BGCHANGES:;
// cache tags:
#FIRSTBEAT:1.000;
#LASTBEAT:898.000;
#SONGFILENAME:Songs/nhac/Agony is my Name/Agony.sm;
#HASMUSIC:1;
#HASBANNER:1;
#MUSICLENGTH:298.039;
// end cache tags

//---------------dance-single - ----------------
#NOTES:
     dance-single:
     :
     Hard:
     11:
     1.000,1.000,1.000,0.742,0.745,1881.000,438.000,221.000,0.000,25.000:
0000
0000
0000
0000
0001
0010
0100
1000
0001
0010
0100
1000
0001
0010
1100
0000
,
1001
0000
0110
0000
1000
0100
0010
0001
1000
0100
0010
0001
1000
0100
0011
0000
,
0110
1010
0001
0010
0100
1000
0100
1000
,
0001
0100
0010
0100
0010
1000
0100
0010
,
0001
0000
0100
0000
0010
0100
0010
0100
0010
0100
0010
0100
0010
0100
1001
0000
,
1100
0000
0011
0000
1000
0001
1000
0001
1000
0001
1000
0001
1000
0001
0110
0000
,
1010
0101
0010
1000
0100
0010
1000
0100
,
0010
0000
0001
0000
0010
0000
1000
0000
0010
0000
1000
0000
0001
0000
0100
0010
,
0100
0010
0100
0010
0001
1000
0100
0010
0100
1000
0001
0100
0010
1000
0100
0001
,
0010
0100
1000
0001
0100
0010
0001
1000
0100
0010
1000
0100
0001
0010
1000
0100
,
0001
0010
0100
1000
0010
0000
0010
0000
1000
0000
1000
0000
0001
0000
0001
0000
,
0100
0100
1000
1000
0010
0010
1000
1000
,
0010
0000
0010
0000
0100
1000
0100
0010
0001
0010
0100
0010
0001
1000
0100
0010
,
0001
1000
0100
0010
0001
0100
0010
1000
0100
0001
0100
0010
0100
0001
1000
0100
,
0010
0001
0100
0001
0010
0000
0010
0000
0100
0000
0100
0000
0010
0000
0010
0000
,
1000
1000
0001
0001
0010
0010
0100
0100
,
1000
0000
1000
0000
1100
0000
0010
0100
1000
0100
0010
0000
1001
0000
0010
0100
,
0010
0100
0010
0000
1100
0000
0100
0000
0101
0000
0001
0000
0011
0000
0010
0000
,
0110
0000
0100
0000
1100
0000
0010
0100
0001
0010
1000
0000
0101
0000
1000
0100
,
0010
0001
0100
0000
1001
0000
0010
0000
1010
0000
0100
0000
1001
0000
0100
0000
,
0011
1000
0110
0001
1100
0010
1001
0100
,
0011
0000
1000
0000
0110
0001
0010
0100
1000
0001
0010
0100
1001
0010
0100
1000
,
0100
0010
0001
0100
2010
0000
0000
0000
0000
0000
0000
3010
0002
0000
0000
0000
,
0000
0000
0003
0000
1000
0100
0010
0001
1000
0100
0010
0001
1000
0100
0010
0001
,
0010
0100
1010
0000
0011
0000
1000
0000
0100
0000
0011
0000
0110
0000
0001
0000
,
0100
0001
1100
1010
0100
0101
1010
0100
,
0010
0100
1010
1100
1001
0101
1100
0110
,
0011
0000
0110
0000
1002
0000
0000
0000
0000
0000
0000
2003
0000
0000
0000
0000
,
3000
0000
1001
0110
1000
0101
1010
0001
,
0100
0010
1001
0101
0010
1100
0101
0010
,
1000
0100
0011
0110
1010
1001
0110
1010
,
0101
1001
0210
0000
0000
0000
0320
0000
,
0030
0000
2020
0030
0000
3202
0003
0000
,
2302
3000
0223
0300
0000
0000
0000
0000
,
0030
0000
1001
0001
0001
0101
0011
0001
,
0001
0011
0101
0001
0001
1001
1001
0100
,
0010
0001
1010
0100
1000
0100
0011
1000
,
0100
0010
0101
1000
0100
0010
2002
3003
,
2002
3003
2002
3003
2002
3003
2002
0000
,
3003
0000
2002
3013
0010
0010
0020
0000
,
1030
1000
2000
0000
3001
0001
0002
0000
,
0013
0010
0020
0000
0130
0100
0001
0010
,
1000
0001
1000
0010
0001
0001
1000
0010
,
0100
0001
0010
0100
0020
0000
2030
3200
,
0320
0032
0203
0320
2030
3020
0230
0000
,
0000
0000
0300
0000
0001
0010
0100
1000
0001
0010
0100
1000
0011
0000
0110
0000
,
1000
0110
0101
0010
0100
1100
0101
0010
,
0100
1001
1100
0010
0100
1000
0101
0110
,
1001
0011
1100
1010
0110
1001
0120
0000
,
0000
0000
2030
0000
3000
0000
0011
1010
,
0100
0011
0110
1000
0001
0100
1001
0110
,
1100
0100
0011
1100
0001
0100
0011
1100
,
1010
0110
0101
1001
0110
0011
1020
0000
,
0000
0000
0000
0000
1230
0000
0000
0000
0000
0000
0301
0010
0100
1000
0010
0100
,
0001
1000
0010
0100
0001
0010
0100
0010
0001
0100
0010
1000
0012
1000
0010
1000
,
0010
1000
0010
1000
0010
1000
0010
1000
0010
1000
0010
1000
0113
0000
0010
0000
,
0010
1010
1010
1000
1000
1100
1100
0100
,
0100
0101
0101
0001
0001
0001
0011
0100
,
1000
0001
0110
0100
0010
0100
1001
0010
,
0001
1000
0220
0330
0220
0330
0220
0330
,
0220
0000
0330
0000
0220
0000
0000
0000
0000
0000
0000
0000
0330
0000
0001
0010
,
0100
1000
0001
0010
0100
1000
0010
0001
0100
0010
1000
0001
0100
0010
1000
0100
,
0010
0001
0100
0010
0100
1000
0001
0010
0100
0010
0001
1000
0100
0010
0001
0100
,
0010
1000
0001
0100
0010
1000
0001
0010
0100
1000
0001
0100
0010
0001
1000
0001
,
0010
0100
0010
1000
0101
0010
0100
0001
1100
0010
0100
1000
0110
0001
1000
0100
,
0010
0001
0010
0100
1000
0001
0100
0010
1000
0001
0010
0100
1000
0100
0010
1000
,
0100
1000
0001
0010
0100
1000
0010
0100
0001
1000
0100
0010
1000
0001
0100
0010
,
1000
0001
0010
0100
0010
0001
1000
0100
0010
0100
0001
0010
0100
1000
0001
0100
,
0010
1000
0001
0100
0010
1000
0001
0100
1000
0100
0010
0001
0010
0100
0001
1000
,
0100
0010
0100
0001
2020
0000
3030
0000
0022
0000
0033
0000
0220
0000
0330
0000
,
0202
0303
2200
3300
2002
3003
0220
0330
,
2002
3003
0020
0000
0000
0000
2030
0000
,
3200
0302
0003
0000
,
0220
0330
2001
0001
0001
0001
0000
0010
,
0010
0010
0001
0001
0001
0001
0000
0100
,
3100
0100
0010
0001
0100
1000
0010
0100
,
0001
0100
1001
0010
1000
0001
1000
0010
,
1000
0000
0000
0010
0100
0010
0100
0010
0100
0010
0100
0010
0100
0010
1000
0100
,
0010
0001
1000
0100
0010
1000
0001
1000
0001
1000
0001
1000
0001
1000
0001
0010
,
0100
1000
0001
0010
0100
0000
0100
0000
0001
0000
0001
0000
0010
0000
0010
0000
,
1000
1000
0100
0100
0001
0001
0010
0010
,
1000
0000
1000
0000
0110
0000
0001
0010
0100
0010
0001
0000
0110
0000
1000
0100
,
0010
0100
1000
0000
0101
0000
0010
0000
1100
0000
0001
0000
0110
0000
0100
0000
,
1010
0000
0001
0000
1100
0000
0010
0100
0010
0100
0010
0000
0101
0000
1000
0001
,
1000
0001
1000
0000
0110
0000
0100
0000
1010
0000
0001
0000
1100
0000
0010
0000
,
0101
1000
1100
0010
0011
0100
0110
0001
,
0101
0000
0010
0000
1001
0010
0100
1000
0001
0010
0100
1000
0110
0001
1000
0100
,
0010
0001
1000
0100
1002
0000
0000
0000
0003
0000
1000
0100
2000
0000
0000
0000
,
3000
0000
0000
0000
1000
0100
0010
0001
0010
0100
1000
0100
0010
0001
0010
0100
,
1000
0100
0010
0001
0110
0000
1000
0000
0101
0000
0001
0000
1100
0000
0010
0000
,
0101
0010
0110
1000
0011
0100
1010
0001
,
0110
1000
1001
0100
0011
0100
1010
0001
,
1100
0010
1002
0000
0000
0000
0213
0000
,
0300
0000
1100
0001
0101
0010
0110
0001
,
1001
0010
1100
0001
1010
0100
0011
1000
,
0101
0010
0110
1000
0011
0100
1100
0010
,
1001
0100
1020
0000
0000
0000
2130
0000
,
3000
0000
1002
0000
0000
0123
0000
0000
,
0132
2103
0000
0000
,
0000
3000
0110
1000
0001
1100
1100
0010
,
0100
1001
1001
0100
0010
0101
0011
1100
,
1010
0100
0011
0011
0011
0011
1100
1100
,
1100
1100
0110
0110
0110
0110
0220
0330
,
0220
0330
0220
0330
0220
0330
0220
0000
,
0000
0000
0330
0000
0001
1000
0001
1000
0001
1000
0001
0000
0001
0010
0100
1000
,
0100
0010
0001
0100
0010
1000
0001
0010
0100
0010
0001
1000
0100
0010
0001
1000
,
0100
1000
0001
0010
0001
0100
0010
0001
0100
1000
0010
0100
0001
0010
0100
1000
,
0001
0100
0010
1000
0001
0100
0010
1000
0001
0010
0100
1000
0110
0001
0010
0100
,
1001
0100
0010
0100
1010
0100
0010
0001
0010
0100
1000
0100
0001
0010
0100
0001
,
1000
0010
0100
0001
1000
0100
0010
0001
1000
0100
1000
0001
0010
0100
0010
0001
,
0100
0010
1000
0001
0010
0100
1000
0001
0100
0010
1000
0001
2100
0000
0000
0000
,
0000
0000
0000
3020
0000
0000
0000
0000
0230
0000
0000
0000
0302
0000
0000
0000
,
0000
0000
0013
0000
0000
0000
0022
0033
,
0202
0303
2200
3300
0220
0330
2002
3003
,
2200
3300
0202
0303
0022
0033
2000
0000
,
0000
3200
0320
0032
,
0000
0003
0000
0000
1002
0000
2103
0000
,
0001
0010
0100
0001
,
0010
0000
0001
0000
0100
3000
0010
0010
,
0001
0001
0010
0010
0100
0100
0001
0001
,
1000
1000
0010
0010
0100
0100
0012
0000
,
0000
0000
0000
2013
,
0000
0000
0000
0000
0000
0000
3100
0100
,
0010
0010
1000
1000
0001
0001
1000
1000
,
0010
0010
0100
0100
0010
0010
1100
0010
,
0100
0010
0100
0010
0100
0010
1001
0010
,
0100
1000
0010
0100
1000
0100
0011
1000
,
0100
0010
0001
1000
0100
0010
1001
0010
,
1000
0010
1000
0010
1000
0010
1001
0100
,
0110
0010
1001
0100
0011
1000
1010
0001
,
0101
0010
1100
0100
0011
1000
0101
0010
,
0110
0001
1100
0010
1001
0100
0101
1000
,
0100
0010
0001
0010
0100
1000
0110
0001
,
0010
0001
0010
0001
0010
0001
1010
0100
,
0001
0100
0001
0100
0001
0100
0011
0001
,
0010
0100
1000
0001
0010
0100
1001
0010
,
0100
0010
0100
0010
0100
0010
1000
0100
,
0001
0010
1000
0100
1000
0010
0001
0010
,
0100
1000
0001
0010
0100
1000
0001
0010
,
0100
1000
0001
1000
0001
1000
0010
0100
,
0010
0100
1000
0100
1000
0100
0001
0010
,
0100
0010
0001
0010
0100
1000
0011
0010
,
0010
0010
1000
1000
1000
1000
0001
1000
,
0100
0010
1000
0001
1000
0001
1010
1000
,
1000
1000
0010
0010
0010
0010
0110
0000
,
0010
0100
0010
0100
0020
0000
0000
0000
0000
0000
0030
0000
0010
1000
0010
1000
,
0010
1000
0010
0000
0002
0000
0000
0000
2003
0000
0000
0000
3020
0000
0000
0000
,
0230
0000
0000
0000
0301
0010
0100
1000
0001
0010
0100
1000
0001
1000
0001
1000
,
0001
1000
0001
1000
0002
0000
0000
0000
2003
0000
0000
0000
3020
0000
0000
0000
,
0230
0000
0000
0000
0310
0001
0010
0001
0010
0001
0010
1000
0010
1000
0010
1000
,
0010
1000
0010
1000
0200
0000
0000
0000
0302
0000
0000
0000
2003
0000
0000
0000
,
3200
0000
0310
0010
0020
0000
1030
1000
,
2000
0000
0000
0000
3001
0010
0001
0010
0001
0000
1000
0001
1000
0001
1000
0000
,
0000
0000
0000
0000
0001
0010
0100
1000
0100
0010
0001
0010
0100
0000
1000
0000
,
0100
1000
0200
0000
0000
0000
0301
0000
,
0000
0000
0000
0000
0001
0010
0100
1000
0001
0010
0100
1000
0010
1000
0010
1000
,
0010
1000
0010
1000
0100
0010
0100
0010
0100
0010
0100
0010
1000
0001
1000
0001
,
1000
0001
1000
0001
1100
0000
1100
0100
0010
0001
1000
0100
0010
0001
1000
0100
,
0010
0001
1000
0010
1000
0010
1000
0010
1000
0010
0001
0100
0001
0100
0001
0100
,
0001
0010
0100
1000
0011
0000
0011
0000
1010
0000
1010
0000
0110
0000
0110
0000
,
1001
1001
1100
1100
1010
1010
0101
0101
,
0011
0011
1100
1100
0110
0110
0101
0101
,
1001
1001
1100
1100
1010
1010
0101
0101
,
0011
0011
2100
0000
0000
0000
3210
0000
,
0000
1302
0000
2013
,
0000
3021
0000
1230
,
0000
1302
0000
2013
,
0000
3000
0111
0000
0000
0000
1110
0000
,
0000
1011
1101
2002
,
0000
0000
0000
0000
0000
0000
0000
0000
3013
0100
0010
0100
0001
0000
0001
0000
,
0100
0000
0100
0000
1000
0000
1000
0000
0001
1000
0001
1000
0010
0000
0010
0000
,
0100
0000
0100
0000
1000
0000
1000
0000
0010
1000
0010
1000
0100
0000
0010
0000
,
0100
0001
0100
1000
0100
0001
0220
0330
,
2200
0000
3300
0000
0022
0000
0033
0000
0001
0010
0100
1000
0001
0010
0100
1000
,
0001
0010
0100
0010
1100
0000
0000
0000
1001
0000
0000
0000
1100
0000
1100
0000
,
1100
0000
1001
0000
0101
0000
0110
0110
,
0110
0000
0101
0000
1100
0000
0101
0101
,
0101
0000
1100
0000
1010
0000
1010
1010
,
1010
0000
0000
0000
0001
0010
0100
1000
0010
0100
0010
0001
0010
0100
0010
0001
,
1000
0100
0010
0001
0100
1000
0100
0010
0001
0100
0010
0100
0001
0010
0100
1000
,
0001
0010
0100
0010
2000
0000
0000
0000
0000
0000
3100
0010
0200
0000
0000
0000
,
0000
0000
0000
0000
0300
0001
0010
0100
1000
0100
0001
0010
0100
1000
0001
0100
,
1000
0010
0100
1000
0101
0010
1000
0100
0001
0100
1000
0010
0001
0100
1000
0001
,
0100
1000
0001
0100
0011
1000
0100
0010
0001
1000
0100
0010
1000
0100
0001
0010
,
0100
0001
0010
0001
1100
0010
0001
0100
1000
0010
0100
0001
0010
0100
1000
0001
,
0100
1000
0100
0010
0101
1000
0100
0010
0001
1000
0100
0010
0001
0100
0010
0001
,
1000
0100
0010
0001
1100
0010
0001
0010
0100
1000
0001
0100
0010
0001
1000
0100
,
0010
0001
0020
0000
0000
0000
0000
0000
0000
0000
0030
0000
0001
0010
0100
1000
,
0100
0010
0001
0010
1100
0000
1000
0000
1000
0000
1010
0000
1001
0000
0001
0000
,
0001
0101
1100
1000
1000
1010
0110
0011
,
0110
1001
0101
0010
0101
0010
1100
0001
,
1100
0001
0110
1000
0110
1000
0202
0303
,
0202
0303
0202
0303
0202
0303
0202
0000
,
0000
0000
0000
0000
0000
0000
0000
0000
0303
0000
0000
0000
0010
0001
1000
0100
,
0001
0010
1000
0100
0001
0010
0100
1000
0001
0010
0100
0010
0001
1000
0100
1000
,
0010
0100
0001
0010
0100
1000
0100
0010
1000
0100
0001
0100
1000
0001
0100
1000
,
0001
0100
1000
0100
0010
0001
0100
0010
1000
0001
0010
0100
2000
0000
0000
0000
,
3200
0000
0000
0000
0320
0000
0000
0000
0030
0000
0100
0010
0001
0010
0100
1000
,
0100
0010
0100
1000
0001
0010
0100
1000
0100
0001
0010
0100
1000
0010
0100
0001
,
0010
0100
0001
0010
0100
1000
0001
0010
0100
0001
0010
0100
2000
0000
0000
0000
,
0000
0000
0000
3200
0000
0000
0000
0000
0320
0000
0000
0000
0230
0000
0000
0000
,
0000
0000
1300
0000
0000
0000
0110
0001
,
1010
0110
0101
0010
1100
0101
1010
0100
,
0011
1010
0110
0001
0100
1010
1001
0100
,
1010
1100
0011
0100
1010
0100
0022
0033
,
0202
0303
2200
3300
0000
1100
1010
0001
,
1010
1100
0101
0010
1000
0110
1010
0100
,
1001
0101
1100
0010
0001
1000
0020
0000
,
0000
2030
3002
0203
,
0000
0000
0310
0000
0000
0000
2020
3030
,
0220
0330
0202
0303
2200
3300
0022
0033
,
0220
0330
2002
3003
2020
3030
0200
0000
,
0000
0302
0203
2300
,
0000
3000
0000
0000
0220
0330
0002
0000
,
0000
0023
0032
2003
,
0000
3000
0000
0000
2002
3003
1002
0000
,
0100
0010
1000
0100
,
1000
0010
0100
1000
,
0010
1000
0100
1000
,
0013
0000
1000
0000
0022
0033
1010
1010
,
1100
1100
0101
0101
0110
0110
1010
1010
,
0101
0101
1010
1010
0110
0110
1100
1100
,
0101
0101
0110
0110
1001
1001
0011
0011
,
1010
1010
1100
1100
0110
0110
2002
0000
,
0000
0000
3003
0000
;
